设为首页收藏本站

影知堂社区

 找回密码
 加入论坛
搜索
查看: 287|回复: 12

中国香港] [辣手神探(134分钟完整版)][动作/犯罪/剧情/惊悚].Hard.Boiled.1992.1080P.x264.10bit.3Audio.国台粤三语.内封简繁中字[6.05G/MKV][HKFACT]

[复制链接]

签到天数: 169 天

[LV.7]常住居民III

发表于 2020-2-14 16:54:46 | 显示全部楼层 |阅读模式
timg_image&quality=80&size=b9999_10000&sec=1581679473904&di=7b0186b7c51a9b818ad2.jpg

资源说明:港版蓝光修复版本有删减,以蓝光为基底,补入VCD版本内容,为134分钟完整版,同时完整版包含一个小片段,电影配音音轨为国语(香港)、国语(台湾)、粤语三语,内封简繁中字!

◎片  名 辣手神探 / 枪神(台)

◎年  代 1992
◎产  地 香港
◎类  别 剧情 / 动作 / 惊悚 / 犯罪
◎语  言 国语(香港)、国语(台湾)、粤语
◎上映日期 1992-04-16
◎IMDb评分 7.9/10 from 43,703人评价43,703人评价
◎IMDb链接 http://www.imdb.com/title/tt0104684
◎豆瓣评分 7.97.9/10 from 2496943,703人评价43,703人评价
◎豆瓣链接 https://movie.douban.com/subject/1293147
◎片  长 134 分钟
◎导  演 吴宇森
◎主  演 周润发 / 梁朝伟 / 毛舜筠 / 陈欣健 / 黄秋生 / 郭追 / 关海山 / 林保怡 / 欧阳震华 / 国村隼
◎简  介




  袁浩云(周润发 饰)是警署侦探,为人正直但行事火爆。他的好友在一次捕匪行动中不幸遇难,令他更加急于报仇。袁正侦探一桩非法军火集团的重案,但为了案件侦破顺利,袁的上司决定让他不再负责此案。此时,袁的女友也离他而去,并对他的敌人产生了感情。这个敌人,正是军火集团里面的头号马仔江浪(梁朝伟 饰)。江郎行事拼命,千方百计博得集团头目信任。袁在追捕中与江相遇,眼看大难临头却发现江放他一马,原来另有内情。




◎获奖情况




第12届香港电影金像奖 最佳男配角(提名) 梁朝伟
第12届香港电影金像奖 最佳剪接 胡大为 / 吴宇森 / 奚杰伟 / 阿积


General
Unique ID                      : 43338271229889760109704589028005017547 (0x209AA5BDF85177C3CA9F0375787477CB)
Complete name                  : H:WEB-DL1080P版辣手神探(134分钟完整版).HKFACT.mkv
Format                         : Matroska
Format version                 : Version 4
File size                      : 6.05 GiB
Duration                       : 2 h 13 min
Overall bit rate               : 6 475 kb/s
Encoded date                   : UTC 2019-07-20 11:29:37
Writing application            : mkvmerge v35.0.0 ('All The Love In The World') 32-bit
Writing library                : libebml v1.3.9 + libmatroska v1.5.2




Video
ID                             : 1
Format                         : AVC
Format/Info                    : Advanced Video Codec
Format profile                 : High@L4.1
Format settings                : CABAC / 4 Ref Frames
Format settings, CABAC         : Yes
Format settings, Reference fra : 4 frames
Codec ID                       : V_MPEG4/ISO/AVC
Duration                       : 2 h 13 min
Bit rate                       : 5 000 kb/s
Width                          : 1 920 pixels
Height                         : 1 080 pixels
Display aspect ratio           : 16:9
Frame rate mode                : Constant
Frame rate                     : 24.000 FPS
Color space                    : YUV
Chroma subsampling             : 4:2:0
Bit depth                      : 8 bits
Scan type                      : Progressive
Bits/(Pixel*Frame)             : 0.100
Stream size                    : 4.67 GiB (77%)
Writing library                : x264 core 157 r2969 d4099dd
Language                       : Chinese
Default                        : Yes
Forced                         : No




Audio #1
ID                             : 2
Format                         : AC-3
Format/Info                    : Audio Coding 3
Commercial name                : Dolby Digital
Codec ID                       : A_AC3
Duration                       : 2 h 13 min
Bit rate mode                  : Constant
Bit rate                       : 192 kb/s
Channel(s)                     : 2 channels
Channel layout                 : L R
Sampling rate                  : 48.0 kHz
Frame rate                     : 31.250 FPS (1536 SPF)
Bit depth                      : 16 bits
Compression mode               : Lossy
Stream size                    : 184 MiB (3%)
Title                          : 國語(台版)
Language                       : Chinese
Service kind                   : Complete Main
Default                        : No
Forced                         : No




Audio #2
ID                             : 3
Format                         : AC-3
Format/Info                    : Audio Coding 3
Commercial name                : Dolby Digital
Codec ID                       : A_AC3
Duration                       : 2 h 13 min
Bit rate mode                  : Constant
Bit rate                       : 640 kb/s
Channel(s)                     : 6 channels
Channel layout                 : L R C LFE Ls Rs
Sampling rate                  : 48.0 kHz
Frame rate                     : 31.250 FPS (1536 SPF)
Bit depth                      : 16 bits
Compression mode               : Lossy
Stream size                    : 612 MiB (10%)
Title                          : 國語(港版)
Language                       : Chinese
Service kind                   : Complete Main
Default                        : Yes
Forced                         : No




Audio #3
ID                             : 4
Format                         : AC-3
Format/Info                    : Audio Coding 3
Commercial name                : Dolby Digital
Codec ID                       : A_AC3
Duration                       : 2 h 13 min
Bit rate mode                  : Constant
Bit rate                       : 640 kb/s
Channel(s)                     : 6 channels
Channel layout                 : L R C LFE Ls Rs
Sampling rate                  : 48.0 kHz
Frame rate                     : 31.250 FPS (1536 SPF)
Bit depth                      : 16 bits
Compression mode               : Lossy
Stream size                    : 612 MiB (10%)
Title                          : 粵語
Language                       : Chinese
Service kind                   : Complete Main
Default                        : No
Forced                         : No


电影截图: Screenshot_20200206_213249_com.baidu.netdisk.jpg Screenshot_20200206_213335_com.baidu.netdisk.jpg Screenshot_20200206_213355_com.baidu.netdisk.jpg Screenshot_20200206_213704_com.baidu.netdisk.jpg Screenshot_20200206_213745_com.baidu.netdisk.jpg


购买主题 本主题需向作者支付 150 金币 才能浏览

签到天数: 481 天

[LV.9]以坛为家II

发表于 前天 00:32 | 显示全部楼层
此帖仅作者可见

签到天数: 524 天

[LV.9]以坛为家II

发表于 2020-2-18 10:52:32 | 显示全部楼层
此帖仅作者可见

签到天数: 115 天

[LV.6]常住居民II

发表于 2020-2-16 22:45:04 | 显示全部楼层
此帖仅作者可见

签到天数: 15 天

[LV.4]偶尔看看III

发表于 2020-2-16 17:37:55 | 显示全部楼层
此帖仅作者可见

签到天数: 260 天

[LV.8]以坛为家I

发表于 2020-2-15 12:39:03 | 显示全部楼层
此帖仅作者可见

签到天数: 845 天

[LV.10]以坛为家III

发表于 2020-2-15 12:09:03 | 显示全部楼层
此帖仅作者可见

签到天数: 28 天

[LV.4]偶尔看看III

发表于 2020-2-15 08:13:34 | 显示全部楼层
此帖仅作者可见

该用户从未签到

发表于 2020-2-15 07:22:53 | 显示全部楼层
此帖仅作者可见

签到天数: 388 天

[LV.9]以坛为家II

发表于 2020-2-14 22:33:45 | 显示全部楼层
此帖仅作者可见
您需要登录后才可以回帖 登录 | 加入论坛

本版积分规则

Archiver|手机版|免责声明|影知堂社区

GMT+8, 2020-2-26 22:29 , Processed in 0.153354 second(s), 31 queries .

Powered by Discuz! X3.2

© 2001-2013 Comsenz Inc.

快速回复 返回顶部 返回列表