设为首页收藏本站

影知堂社区

 找回密码
 加入论坛
搜索
查看: 460|回复: 17

[百度][香港][威龙猛探][Bluray-MKV/7.25G][国粤英德日导六语/繁英特效]

[复制链接]

签到天数: 104 天

[LV.6]常住居民II

发表于 2019-11-29 13:02:40 | 显示全部楼层 |阅读模式
英版2K原盘直压 合成国粤德日语 DIY简繁日德字幕 附送日本加长版源文件


◎说  明   国粤语来自BeAst感谢!国粤语音轨不完全是国粤语缺失部分英语替换,日本加长版删减了所有漏点镜头
◎译  名 威龙猛探/The Protector
◎片  名 威龍猛探
◎年  代 1985
◎产  地 中国香港/美国
◎类  别 剧情/动作/犯罪
◎语  言 英语/粤语
◎上映日期 1985-07-11
◎IMDb链接  https://www.imdb.com/title/tt0089847/
◎豆瓣评分 6.2/10 from 3174 users
◎豆瓣链接 https://douban.com/subject/1304199/
◎片  长 95分钟
◎导  演 成龙 Jackie Chan / 詹姆斯·格利肯豪斯 James Glickenhaus
◎编  剧 詹姆斯·格利肯豪斯 James Glickenhaus
◎主  演 成龙 Jackie Chan
       李赛凤 Moon Lee
       乔宏 Roy Chiao
       约翰·斯宾塞 John Spencer
       李海生 Hoi Sang Lee
       沈威 Wai Shum
       丹尼·爱罗 Danny Aiello
       叶倩文 Sally Yeh
       冯克安 Hark-On Fung
       杨群 Peter Yang Kwan
       Richard Epper
       维克多·阿诺德 Victor Arnold

◎标  签 成龙 | 动作 | 香港 | 香港电影 | 美国 | 1985 | 功夫 | 喜剧

◎简  介

  
  当夜色笼罩纽约,这里又变成了一座犯罪猖獗的城市。华人警察黄比利(成龙 饰)和同事来到酒吧庆祝来美十周年,不料同事却被一群闯入的劫匪杀死,愤怒的比利将凶手正法,因此激怒了上司,被惩罚性质的派到大亨沙比路的时装展上维持治安,表演期间,沙比路的女儿罗娜被一群人劫走,而沙比路的保镖宾尼事发前曾向香港打过多个电话,种种迹象表明,沙比路和香港头号毒枭高伟洛(乔宏 饰)有过合作,而二人产生争执可能导致这次的绑架。比利和搭档丹尼(丹尼·埃洛 Danny Aiello 饰)前往香港,在这里找到了高伟洛昔日两名合作伙伴李兴以及何天的女儿何美芳(叶倩文 饰),希望对方能够提供线索。高伟洛迅速派人追杀比利和丹尼,以及昔日的合作伙伴。比利冲破重重阻碍,查清了高伟洛的巢穴,带领搭档向高发起了猛攻……
General
Unique ID                      : 213007094096362161571515587262864074645 (0xA03FAC9113E141FCA9F7987FCE66A795)
Format                         : Matroska
Format version                 : Version 4 / Version 2
File size                      : 7.25 GiB
Duration                       : 1 h 35 min
Overall bit rate mode          : Variable
Overall bit rate               : 10.9 Mb/s
Movie name                     : ☺威龍猛探☺ ☺戀戀紅塵☺
Encoded date                   : UTC 2019-11-28 17:01:56
Writing application            : mkvmerge v6.8.0 ('Theme for Great Cities') 32bit built on Mar  2 2014 21:27:07
Writing library                : libebml v1.3.0 + libmatroska v1.4.1

Video
ID                             : 1
Format                         : AVC
Format/Info                    : Advanced Video Codec
Format profile                 : High@L5
Format settings                : CABAC / 4 Ref Frames
Format settings, CABAC         : Yes
Format settings, ReFrames      : 4 frames
Codec ID                       : V_MPEG4/ISO/AVC
Duration                       : 1 h 35 min
Bit rate mode                  : Variable
Bit rate                       : 8 000 kb/s
Maximum bit rate               : 50.0 Mb/s
Width                          : 1 920 pixels
Height                         : 1 036 pixels
Display aspect ratio           : 1.85:1
Frame rate mode                : Constant
Frame rate                     : 23.976 (24000/1001) FPS
Color space                    : YUV
Chroma subsampling             : 4:2:0
Bit depth                      : 8 bits
Scan type                      : Progressive
Bits/(Pixel*Frame)             : 0.168
Stream size                    : 5.32 GiB (73%)
Title                          : ☺威龍猛探☺ ☺戀戀紅塵☺
Writing library                : x264 core 158 r2984+49 6932f4a t_mod_New [0-bit@all X86_64]
Encoding settings              : cabac=1 / ref=5 / deblock=1:-3:-3 / analyse=0x3:0x113 / me=tesa / subme=9 / psy=1 / fade_compensate=0.00 / psy_rd=1.00:0.00 / mixed_ref=1 / me_range=16 / chroma_me=1 / trellis=2 / 8x8dct=1 / cqm=0 / deadzone=21,11 / fast_pskip=1 / chroma_qp_offset=-2 / threads=12 / lookahead_threads=1 / sliced_threads=0 / nr=0 / decimate=1 / interlaced=0 / bluray_compat=1 / constrained_intra=0 / fgo=0 / bframes=3 / b_pyramid=1 / b_adapt=1 / b_bias=50 / direct=3 / weightb=1 / open_gop=0 / weightp=2 / keyint=240 / keyint_min=1 / scenecut=50 / intra_refresh=0 / rc_lookahead=50 / rc=2pass / mbtree=1 / bitrate=8000 / ratetol=1.0 / qcomp=0.60 / qpmin=0:0:0 / qpmax=69:69:69 / qpstep=4 / cplxblur=20.0 / qblur=0.5 / vbv_maxrate=50000 / vbv_bufsize=50000 / nal_hrd=vbr / filler=0 / ip_ratio=1.40 / aq=3:1.50 / aq-sensitivity=10.00 / aq-factor=1.00:1.00:1.00 / aq2=0 / aq3=0
Default                        : Yes
Forced                         : No

Audio #1
ID                             : 2
Format                         : AC-3
Format/Info                    : Audio Coding 3
Codec ID                       : A_AC3
Duration                       : 1 h 35 min
Bit rate mode                  : Constant
Bit rate                       : 448 kb/s
Channel(s)                     : 6 channels
Channel positions              : Front: L C R, Side: L R, LFE
Sampling rate                  : 48.0 kHz
Frame rate                     : 31.250 FPS (1536 SPF)
Bit depth                      : 16 bits
Compression mode               : Lossy
Stream size                    : 306 MiB (4%)
Title                          : 國語
Language                       : Chinese
Service kind                   : Complete Main
Default                        : Yes
Forced                         : No

Audio #2
ID                             : 3
Format                         : AC-3
Format/Info                    : Audio Coding 3
Codec ID                       : A_AC3
Duration                       : 1 h 35 min
Bit rate mode                  : Constant
Bit rate                       : 448 kb/s
Channel(s)                     : 6 channels
Channel positions              : Front: L C R, Side: L R, LFE
Sampling rate                  : 48.0 kHz
Frame rate                     : 31.250 FPS (1536 SPF)
Bit depth                      : 16 bits
Compression mode               : Lossy
Stream size                    : 306 MiB (4%)
Title                          : 粵語
Language                       : Chinese
Service kind                   : Complete Main
Default                        : No
Forced                         : No

Audio #3
ID                             : 4
Format                         : AC-3
Format/Info                    : Audio Coding 3
Codec ID                       : A_AC3
Duration                       : 1 h 35 min
Bit rate mode                  : Constant
Bit rate                       : 640 kb/s
Channel(s)                     : 6 channels
Channel positions              : Front: L C R, Side: L R, LFE
Sampling rate                  : 48.0 kHz
Frame rate                     : 31.250 FPS (1536 SPF)
Bit depth                      : 16 bits
Compression mode               : Lossy
Stream size                    : 437 MiB (6%)
Title                          : 英語
Language                       : English
Service kind                   : Complete Main
Default                        : No
Forced                         : No

Audio #4
ID                             : 5
Format                         : AC-3
Format/Info                    : Audio Coding 3
Codec ID                       : A_AC3
Duration                       : 1 h 35 min
Bit rate mode                  : Constant
Bit rate                       : 384 kb/s
Channel(s)                     : 6 channels
Channel positions              : Front: L C R, Side: L R, LFE
Sampling rate                  : 48.0 kHz
Frame rate                     : 31.250 FPS (1536 SPF)
Bit depth                      : 16 bits
Compression mode               : Lossy
Stream size                    : 262 MiB (4%)
Title                          : 德語
Language                       : German
Service kind                   : Complete Main
Default                        : No
Forced                         : No

Audio #5
ID                             : 6
Format                         : AC-3
Format/Info                    : Audio Coding 3
Codec ID                       : A_AC3
Duration                       : 1 h 35 min
Bit rate mode                  : Constant
Bit rate                       : 448 kb/s
Channel(s)                     : 2 channels
Channel positions              : Front: L R
Sampling rate                  : 48.0 kHz
Frame rate                     : 31.250 FPS (1536 SPF)
Bit depth                      : 16 bits
Compression mode               : Lossy
Stream size                    : 306 MiB (4%)
Title                          : 日語
Language                       : Japanese
Service kind                   : Complete Main
Default                        : No
Forced                         : No

Audio #6
ID                             : 7
Format                         : AC-3
Format/Info                    : Audio Coding 3
Codec ID                       : A_AC3
Duration                       : 1 h 35 min
Bit rate mode                  : Constant
Bit rate                       : 320 kb/s
Channel(s)                     : 2 channels
Channel positions              : Front: L R
Sampling rate                  : 48.0 kHz
Frame rate                     : 31.250 FPS (1536 SPF)
Bit depth                      : 16 bits
Compression mode               : Lossy
Stream size                    : 218 MiB (3%)
Title                          : 評論
Language                       : English
Service kind                   : Complete Main
Default                        : No
Forced                         : No

Text #1
ID                             : 8
Format                         : PGS
Muxing mode                    : zlib
Codec ID                       : S_HDMV/PGS
Codec ID/Info                  : Picture based subtitle format used on BDs/HD-DVDs
Title                          : 繁英特效(SUP)
Language                       : Chinese
Default                        : Yes
Forced                         : No

Text #2
ID                             : 9
Format                         : PGS
Muxing mode                    : zlib
Codec ID                       : S_HDMV/PGS
Codec ID/Info                  : Picture based subtitle format used on BDs/HD-DVDs
Title                          : 簡英特效
Language                       : Chinese
Default                        : No
Forced                         : No

Text #3
ID                             : 10
Format                         : ASS
Codec ID                       : S_TEXT/ASS
Codec ID/Info                  : Advanced Sub Station Alpha
Compression mode               : Lossless
Title                          : 繁英特效
Language                       : Chinese
Default                        : No
Forced                         : No

Text #4
ID                             : 11
Format                         : ASS
Codec ID                       : S_TEXT/ASS
Codec ID/Info                  : Advanced Sub Station Alpha
Compression mode               : Lossless
Title                          : 簡英特效
Language                       : Chinese
Default                        : No
Forced                         : No

Text #5
ID                             : 12
Format                         : ASS
Codec ID                       : S_TEXT/ASS
Codec ID/Info                  : Advanced Sub Station Alpha
Compression mode               : Lossless
Title                          : 繁體特效
Language                       : Chinese
Default                        : No
Forced                         : No

Text #6
ID                             : 13
Format                         : ASS
Codec ID                       : S_TEXT/ASS
Codec ID/Info                  : Advanced Sub Station Alpha
Compression mode               : Lossless
Title                          : 簡體特效
Language                       : Chinese
Default                        : No
Forced                         : No

Text #7
ID                             : 14
Format                         : PGS
Muxing mode                    : zlib
Codec ID                       : S_HDMV/PGS
Codec ID/Info                  : Picture based subtitle format used on BDs/HD-DVDs
Title                          : 英文字幕
Language                       : English
Default                        : No
Forced                         : No

Text #8
ID                             : 15
Format                         : PGS
Muxing mode                    : zlib
Codec ID                       : S_HDMV/PGS
Codec ID/Info                  : Picture based subtitle format used on BDs/HD-DVDs
Title                          : 德文字幕
Language                       : German
Default                        : No
Forced                         : No

Text #9
ID                             : 16
Format                         : PGS
Muxing mode                    : zlib
Codec ID                       : S_HDMV/PGS
Codec ID/Info                  : Picture based subtitle format used on BDs/HD-DVDs
Title                          : 日文字幕
Language                       : Japanese
Default                        : No
Forced                         : No


威龍猛探BD超清國粵英德日導六語版.mkv_20191129_123208.633.jpg
威龍猛探BD超清國粵英德日導六語版.mkv_20191129_123016.908.jpg
威龍猛探BD超清國粵英德日導六語版.mkv_20191129_122856.837.jpg
威龍猛探BD超清國粵英德日導六語版.mkv_20191129_122709.396.jpg
威龍猛探BD超清國粵英德日導六語版.mkv_20191129_122524.573.jpg
威龍猛探BD超清國粵英德日導六語版.mkv.jpg
◎加长版本
     以下是日本加长版截图
威龙猛探  - 日本加长版.m2ts_20191129_124704.036.jpg
威龙猛探  - 日本加长版.m2ts.jpg
购买主题 本主题需向作者支付 588 金币 才能浏览

签到天数: 104 天

[LV.6]常住居民II

 楼主| 发表于 2019-11-29 13:15:23 | 显示全部楼层
本帖最后由 戀戀紅塵 于 2019-11-29 13:46 编辑

如果有人想做粤配字幕 可以提供粤配字幕 只不过需要重新校正时间轴 超级麻烦 网上没有OCR好粤语字幕 自己OCR的

签到天数: 547 天

[LV.9]以坛为家II

发表于 2019-11-29 13:41:51 | 显示全部楼层
感谢楼主分享压制

该用户从未签到

发表于 2019-11-29 15:04:17 | 显示全部楼层
楼主怎么不做个在2k基础上的加长版

签到天数: 29 天

[LV.4]偶尔看看III

发表于 2019-11-29 15:14:43 | 显示全部楼层
好东西 喜欢的

签到天数: 104 天

[LV.6]常住居民II

 楼主| 发表于 2019-11-29 15:27:13 | 显示全部楼层
舌尖上的足疗 发表于 2019-11-29 15:04
楼主怎么不做个在2k基础上的加长版

估计没有人去做,本来我还想加入寰宇DVD国粤语根本剪不了 ,无法通过转帧来处理
而且有些片段重拍了

该用户从未签到

发表于 2019-11-29 15:29:05 | 显示全部楼层
戀戀紅塵 发表于 2019-11-29 15:27
估计没有人去做,本来我还想加入寰宇DVD国粤语根本剪不了 ,无法通过转帧来处理
而且有些片段重拍了 ...

这样啊好吧,遗憾

签到天数: 104 天

[LV.6]常住居民II

 楼主| 发表于 2019-11-29 15:33:32 | 显示全部楼层

版本有4个 正宗港版DVD88分钟 海外DVD91分钟 蓝光95分钟 日本公映版104分钟

签到天数: 359 天

[LV.8]以坛为家I

发表于 2019-11-29 16:09:47 | 显示全部楼层
不错的版本

签到天数: 52 天

[LV.5]常住居民I

发表于 2019-11-29 19:26:31 | 显示全部楼层
真的很清楚
您需要登录后才可以回帖 登录 | 加入论坛

本版积分规则

Archiver|手机版|免责声明|影知堂社区

GMT+8, 2019-12-16 17:40 , Processed in 0.197279 second(s), 30 queries .

Powered by Discuz! X3.2

© 2001-2013 Comsenz Inc.

快速回复 返回顶部 返回列表