设为首页收藏本站

影知堂社区

 找回密码
 加入论坛
搜索
查看: 974|回复: 34

[百度][香港][黑拳][Bluray-MKV/5.52G][国粤双语/繁英特效]

[复制链接]

签到天数: 104 天

[LV.6]常住居民II

发表于 2017-10-13 22:57:38 | 显示全部楼层 |阅读模式
地址已更新!
225000rf1nttdznq98rtan.jpg
◎译  名 黑拳
◎片  名 Hak kuen
◎年  代 2006
◎国  家 香港
◎类  别 动作
◎语  言 国语/粤语
◎字  幕 繁英特效(SUP)/简英特效(SUP)/繁英特效/简英特效/繁体特效/简体特效
◎IMDB评分 6.4/10 ( 637票 )
◎IMDB链接 http://www.7176.com/title/tt0813549
◎制作公司 中国星娱乐有限公司 [香港]
       一百年电影有限公司 [香港]
       Point of View Movie Productions
       金牌娱乐事业有限公司 [香港]
◎发行公司 中国星娱乐有限公司 [香港] 2006 Hong Kong theatrical
       Dragon Dynasty2008 USA DVD
       Metropolitan Filmexport [法国] 2007 France theatrical
       Tiberius Film GmbH [德国] 2007 France theatrical/2007 Germany theatrical
       The Weinstein Company LLC [美国] 2007 USA VHS
       Free-D Workshop Company
◎尺寸格式 +视频帧率:25 fps
                     +分 辨 率: 1920 x 818
◎文件大小 5.52G
◎片  长 01:42:27
◎导  演 罗守耀Dennis Law
◎编  剧 罗守耀Dennis Law....written by
◎主  演 郑中基Ronald Cheng
       杨爱瑾Miki Yeung
       傅  颖Theresa Fu
       林雪Suet Lam
       洪天明Timmy Hung....Portland Street Fighter
       古宇Yu Gu....Fai as Kris Gu
       路斯明Sze-Ming Lu....Wai as Johnny Lu
       许绍雄Shiu Hung Hui....Worker Ming as Hui Siu Hung
       Pounh Chong Soong....Referee as Soong Pounh Chong
       欧轩伟Au Hin Wai....Jet as Au Hinn Wai
       Paul Smith....Killer K
       谷垣健治Kenji Tanigaki....Gold Dragon uncredited

◎简  介
思想单纯、正直的全国武术冠军高岗(吴京),参与一京剧团来香港作短期演出,地下拳主持人豪强(张兆辉)利诱高岗参战地下拳赛,高岗在女团员小田(杨爱瑾)的鼓励及支持下踏进了这黑暗血腥的地下拳世界。另一女团员徐志(傅颖)因结识了香港青年JACKY而一同留下。
高岗在黑拳组织结织了滑头小混混队长(郑中基),高岗高超的武术技巧致使本来规模甚小的黑拳拳赛大受欢迎。一次一次的胜利让高岗称霸黑拳拳坛,敌对黑拳老板新哥(卢惠光)连番挑战高岗,连场恶斗因而展开。
平常混混噩噩的队长原来是一深藏不露的高手,他提点高岗打黑拳的秘诀,在一次偶然的机会,高岗和小田重遇被迫做了妓女的徐志,小田告诫徐志因而引致一场街头恶斗,新哥找来拳击界最强的拳王天魔京来和高岗作生死战。高岗在豪强等人威迫下, 打假拳输了给实力平平的对手砵兰街霸(洪天明),身受重伤,队长终于明白母亲的告诫:“猛虎为其兽皮而死”……
◎幕  后
杨爱瑾在本片扮演一个机智聪明的女孩小田,非常有心计,有时甚至为了利益,不择手段,出卖身边的人。杨爱瑾觉得这角色是一个挑战,因为内心戏比较多,而且比较沉重。到正式拍摄时,杨爱瑾的表演令吴京叹为观止。
D:\黑拳BD超清國粵雙語版.mkv
  General
    Unique ID : 211740169873985203064984756990984437755 (0x9F4BAC61414D378B82ED28D55095BFFB)
    Complete name : D:\黑拳BD超清國粵雙語版.mkv
    Format : Matroska
    Format version : Version 4 / Version 2
    File size : 5.53 GiB
    Duration : 1h 42mn
    Overall bit rate : 7 723 Kbps
    Movie name : ☺黑拳☺ ☺戀戀紅塵☺
    Encoded date : UTC 2017-09-10 11:49:22
    Writing application : mkvmerge v6.8.0 ('Theme for Great Cities') 32bit built on Mar  2 2014 21:27:07
    Writing library : libebml v1.3.0 + libmatroska v1.4.1
  Video #1
    ID : 1
    Format : AVC
    Format/Info : Advanced Video Codec
    Format profile : High@L4.1
    Format settings, CABAC : Yes
    Format settings, ReFrames : 4 frames
    Codec ID : V_MPEG4/ISO/AVC
    Duration : 1h 42mn
    Bit rate : 6 600 Kbps
    Width : 1 920 pixels
    Height : 816 pixels
    Display aspect ratio : 2.35:1
    Frame rate mode : Constant
    Frame rate : 25.000 fps
    Color space : YUV
    Chroma subsampling : 4:2:0
    Bit depth : 8 bits
    Scan type : Progressive
    Bits/(Pixel*Frame) : 0.169
    Stream size : 4.64 GiB (84%)
    Title : ☺黑拳☺ ☺戀戀紅塵☺
    Writing library : x264 core 120 r2164 da19765
    Encoding settings : cabac=1 / ref=5 / deblock=1:-3:-3 / analyse=0x3:0x133 / me=umh / subme=10 / psy=1 / psy_rd=1.05:0.10 / mixed_ref=1 / me_range=24 / chroma_me=1 / trellis=2 / 8x8dct=1 / cqm=0 / deadzone=21,11 / fast_pskip=1 / chroma_qp_offset=-2 / threads=6 / sliced_threads=0 / nr=0 / decimate=1 / interlaced=0 / bluray_compat=0 / constrained_intra=0 / bframes=8 / b_pyramid=1 / b_adapt=2 / b_bias=0 / direct=3 / weightb=1 / open_gop=0 / weightp=2 / keyint=250 / keyint_min=25 / scenecut=40 / intra_refresh=0 / rc_lookahead=60 / rc=2pass / mbtree=1 / bitrate=6600 / ratetol=1.0 / qcomp=0.60 / qpmin=0 / qpmax=59 / qpstep=4 / cplxblur=20.0 / qblur=0.5 / vbv_maxrate=40000 / vbv_bufsize=40000 / nal_hrd=none / ip_ratio=1.40 / aq=1:1.00
    Language : Chinese
    Default : Yes
    Forced : No
  Audio #2
    ID : 2
    Format : AC-3
    Format/Info : Audio Coding 3
    Mode extension : CM (complete main)
    Format settings, Endianness : Big
    Codec ID : A_AC3
    Duration : 1h 42mn
    Bit rate mode : Constant
    Bit rate : 640 Kbps
    Channel count : 6 channels
    Channel positions : Front: L C R, Side: L R, LFE
    Sampling rate : 48.0 KHz
    Bit depth : 16 bits
    Compression mode : Lossy
    Stream size : 469 MiB (8%)
    Title : 國語
    Language : Chinese
    Default : No
    Forced : No
  Audio #3
    ID : 3
    Format : AC-3
    Format/Info : Audio Coding 3
    Mode extension : CM (complete main)
    Format settings, Endianness : Big
    Codec ID : A_AC3
    Duration : 1h 42mn
    Bit rate mode : Constant
    Bit rate : 448 Kbps
    Channel count : 6 channels
    Channel positions : Front: L C R, Side: L R, LFE
    Sampling rate : 48.0 KHz
    Bit depth : 16 bits
    Compression mode : Lossy
    Stream size : 328 MiB (6%)
    Title : 粵語
    Language : Chinese
    Default : No
    Forced : No
  Text #4
    ID : 4
    Format : PGS
    Muxing mode : zlib
    Codec ID : S_HDMV/PGS
    Codec ID/Info : The same subtitle format used on BDs/HD-DVDs
    Title : 繁英特效(SUP)
    Language : Chinese
    Default : Yes
    Forced : No
  Text #5
    ID : 5
    Format : PGS
    Muxing mode : zlib
    Codec ID : S_HDMV/PGS
    Codec ID/Info : The same subtitle format used on BDs/HD-DVDs
    Title : 簡英特效(SUP)
    Language : Chinese
    Default : No
    Forced : No
  Text #6
    ID : 6
    Format : ASS
    Codec ID : S_TEXT/ASS
    Codec ID/Info : Advanced Sub Station Alpha
    Compression mode : Lossless
    Title : 繁英特效
    Language : Chinese
    Default : No
    Forced : No
  Text #7
    ID : 7
    Format : ASS
    Codec ID : S_TEXT/ASS
    Codec ID/Info : Advanced Sub Station Alpha
    Compression mode : Lossless
    Title : 簡英特效
    Language : Chinese
    Default : No
    Forced : No
  Text #8
    ID : 8
    Format : ASS
    Codec ID : S_TEXT/ASS
    Codec ID/Info : Advanced Sub Station Alpha
    Compression mode : Lossless
    Title : 繁體特效
    Language : Chinese
    Default : No
    Forced : No
  Text #9
    ID : 9
    Format : ASS
    Codec ID : S_TEXT/ASS
    Codec ID/Info : Advanced Sub Station Alpha
    Compression mode : Lossless
    Title : 簡體特效
    Language : Chinese
    Default : No
    Forced : No

◎截  图
黑拳BD超清國粵雙語版.mkv_20170918_215914.248.jpg
黑拳BD超清國粵雙語版.mkv_20170918_215941.752.jpg
黑拳BD超清國粵雙語版[00_01_44][20171013-224938-0].JPG
黑拳BD超清國粵雙語版[00_08_02][20171013-224953-1].JPG
黑拳BD超清國粵雙語版[00_22_01][20171013-225008-2].JPG
黑拳BD超清國粵雙語版.mkv_thumbs_2017.10.13.22_51_43.jpg
购买主题 本主题需向作者支付 160 金币 才能浏览

签到天数: 23 天

[LV.4]偶尔看看III

发表于 2017-10-13 23:25:53 | 显示全部楼层
经典之作

签到天数: 273 天

[LV.8]以坛为家I

发表于 2017-10-14 00:57:27 | 显示全部楼层
終於等到粤语了

签到天数: 24 天

[LV.4]偶尔看看III

发表于 2017-10-14 05:38:29 | 显示全部楼层
提示: 作者被禁止或删除 内容自动屏蔽

签到天数: 27 天

[LV.4]偶尔看看III

发表于 2017-10-14 07:45:31 | 显示全部楼层
好电影啊

签到天数: 414 天

[LV.9]以坛为家II

发表于 2017-10-14 08:05:49 | 显示全部楼层
感谢楼主分享

签到天数: 81 天

[LV.6]常住居民II

发表于 2017-10-14 08:24:39 | 显示全部楼层
感谢楼主分享

签到天数: 414 天

[LV.9]以坛为家II

发表于 2017-10-14 08:35:42 | 显示全部楼层
解压失败!请楼主检查一下吧

签到天数: 1112 天

[LV.10]以坛为家III

发表于 2017-10-14 09:17:46 | 显示全部楼层
好电影,支持一下

签到天数: 104 天

[LV.6]常住居民II

 楼主| 发表于 2017-10-14 11:18:26 | 显示全部楼层
sygfhf 发表于 2017-10-14 08:35
解压失败!请楼主检查一下吧

晚上回去检查
您需要登录后才可以回帖 登录 | 加入论坛

本版积分规则

Archiver|手机版|免责声明|影知堂社区

GMT+8, 2019-10-18 05:06 , Processed in 0.403288 second(s), 29 queries .

Powered by Discuz! X3.2

© 2001-2013 Comsenz Inc.

快速回复 返回顶部 返回列表